#TITLE:This Must Be A Dream;
#SUBTITLE:;
#ARTIST:Carbo;
#TITLETRANSLIT:;
#SUBTITLETRANSLIT:;
#ARTISTTRANSLIT:;
#CREDIT:;
#BANNER:;
#BACKGROUND:;
#LYRICSPATH:;
#CDTITLE:;
#MUSIC:This Must Be A Dream.mp3;
#OFFSET:0.000;
#SAMPLESTART:100.000;
#SAMPLELENGTH:12.000;
#SELECTABLE:YES;
#BPMS:0.000=60.000;
#STOPS:;
#BGCHANGES:;
// cache tags:
#FIRSTBEAT:0.000;
#LASTBEAT:236.000;
#SONGFILENAME:Songs/nhac/This Must Be A Dream/This Must Be A Dream.sm;
#HASMUSIC:1;
#HASBANNER:0;
#MUSICLENGTH:213.394;
// end cache tags

//---------------dance-single - ----------------
#NOTES:
     dance-single:
     :
     Beginner:
     1:
     0.222,0.233,0.108,0.084,0.527,290.000,23.000,18.000,0.000,0.000:
2000
0000
0000
0000
0000
0000
0000
0000
0000
0000
0000
0000
0000
0000
0000
3002
0000
0000
0000
0000
0000
0000
0023
0000
0000
0000
0000
0000
0230
0000
0000
0000
,
0000
0000
0000
2300
0000
0000
0000
0000
3000
0000
0001
0000
0001
0000
0000
0000
0000
0000
0010
0000
0000
0000
0000
0000
0010
0000
0000
0000
0000
0000
0100
0000
,
0000
0000
0000
0100
0000
0000
0000
0000
0000
1000
0000
0000
0000
0000
1000
0000
0000
0000
0000
0100
0000
0000
0000
0000
0100
0000
0000
0000
0000
0000
0000
0000
,
0001
0000
0000
0000
0000
0000
0000
0100
0000
0000
0000
0000
0000
0000
0010
0000
0000
0000
0000
0000
0000
1000
0000
0000
0000
0000
0000
0001
0000
0000
0000
0000
,
0000
0001
0000
0000
0000
0000
0000
0001
0000
0000
0000
0000
0000
0001
0000
0000
0000
0000
0000
0001
0000
0000
0000
0000
0000
0001
0000
0000
0000
0000
0000
0000
,
0010
0000
0000
0000
0100
0000
0000
1000
0000
0000
0000
0001
0000
0000
0000
0000
0000
0001
0000
0000
0000
0000
0000
0001
0000
0000
0000
0000
0000
0000
0010
0000
,
0000
0000
0000
0000
0100
0000
0000
0000
0000
0000
1000
0000
0000
0001
0000
0000
0000
0000
0000
0000
0010
0000
0000
0000
0000
0000
0001
0000
0000
0000
0000
0000
,
0100
0000
0000
0000
0000
0010
0000
0000
1000
0000
0000
0000
0001
0000
0000
0000
0000
0000
0000
0000
0010
0000
0000
0000
0000
0000
0000
0001
0000
0000
0000
0000
,
0000
0100
0000
0000
0000
0000
0000
0010
0000
0000
0000
0000
0000
0000
1000
0000
0000
0000
0000
0000
0001
0000
0000
0000
0000
0000
0000
1000
0000
0000
0000
0000
,
0000
0000
0010
0000
0000
0000
0000
0000
0000
0000
0100
0000
0000
0000
0000
0000
0000
0000
1000
0000
0000
0000
0000
0001
0000
0000
0000
0000
0000
0000
1000
0000
,
0000
0000
0000
0100
0000
0000
0000
0000
0000
0000
0000
0000
0000
0100
0000
0000
0000
0000
0010
0000
0000
0000
0000
0000
0000
0000
0100
0000
0000
0000
0000
0001
,
0000
0000
0000
0010
0000
0000
0000
0000
0000
0000
0001
0000
0000
0000
0000
0000
0000
0100
0000
0000
0000
0000
0000
0001
0000
0000
0000
0000
0000
0000
2000
0000
,
0000
0000
0000
0000
0000
0000
0000
0000
0000
0000
0000
0000
3200
0000
0000
0000
0000
0000
0000
0300
0020
0000
0000
0000
0000
0000
0032
0000
0000
0000
0000
0000
,
2003
0000
0000
0000
0000
0000
0000
3200
0000
0000
0000
0000
0000
0320
0000
0000
0000
0000
0000
0000
0000
0032
0000
0000
0000
0000
0000
0000
0000
0000
0000
0000
,
0000
0000
0000
1003
0000
0000
1000
0000
0000
0000
1000
0000
0000
1000
0000
0000
1000
0000
0000
0000
0000
0000
0001
0000
0000
0000
0000
0000
0000
0000
1000
0000
,
0000
0000
0000
0000
0010
0000
0000
0000
0000
0000
0000
1000
0000
0000
0000
0000
0000
0000
0100
0000
0000
0000
0000
0000
0000
0011
0000
0000
0000
0000
0000
0000
,
0000
0110
0000
0000
0000
0000
0000
1100
0000
0000
0000
0000
0000
0010
0100
0000
0000
0000
0000
0000
0000
0011
0000
0000
0000
0000
0000
1000
0000
0000
0000
0000
,
0000
0000
0001
0000
0000
0000
0000
0000
1000
0000
0000
0000
0000
0000
0000
0010
0000
0000
0000
0000
0100
0000
0000
0010
0000
0000
0000
0000
0000
0001
0000
0000
,
0000
1000
0000
0000
0000
0000
0000
0000
0001
0000
0000
1000
0000
0000
0000
0010
0000
0000
0000
0000
0000
1000
0000
0000
0000
0000
0000
0100
0000
0000
0000
0000
,
0000
1000
0000
0000
0000
0000
0011
0000
0000
0000
0000
0000
0000
0110
0000
0000
0000
0000
0000
1100
0000
0000
0000
0000
0000
1000
0000
0000
0000
0000
0001
0000
,
0000
0000
0000
1000
0000
0000
0000
0000
0000
0010
0000
0000
0000
0000
1000
0000
0000
0000
0000
0000
0000
0100
0000
0000
0000
0000
0000
0000
0011
0000
0000
0000
,
0000
0000
0110
0000
0000
0000
0000
0000
0000
0000
1001
0000
0000
0010
0100
0000
0000
0000
0000
0000
1001
0000
0000
0000
0000
0000
0000
0010
0000
0000
0000
0100
,
0000
0000
0000
0000
0000
1001
0000
0000
0000
0000
0000
0000
1000
0000
0000
0001
0000
0000
0000
0110
0000
0000
0000
0000
0000
0000
1000
0000
0000
0001
0000
0000
,
0000
0110
0000
0000
0000
0000
0000
0000
1000
0000
0000
0000
0000
0000
0010
0000
0000
0000
0000
0000
0000
0100
0000
0000
0000
0000
0000
0000
1000
0000
0000
0000
,
0000
0000
0000
0010
0000
0000
0000
0000
0000
0100
0000
0000
0000
0000
0000
0000
0001
0000
0000
0000
0000
0000
0000
1000
0000
0000
0000
0000
0000
0000
0000
0000
,
0000
0000
0000
0000
0000
0000
1000
0000
0000
0000
0000
0000
0000
0000
0000
0000
0000
0000
1000
0000
0000
0000
0000
0000
0000
0000
0000
0000
0000
0001
0000
0000
,
0000
0000
0000
0000
0000
0000
0000
0000
0001
0000
0000
0000
0000
0000
0000
0000
0000
0001
0000
0000
0000
0000
0000
0000
0000
0000
0000
0001
0000
0000
0000
0000
,
0000
0010
0100
0010
,
0100
0000
0000
0000
0000
0000
0000
0010
0000
0000
0000
0000
0000
0000
1000
0000
0000
0000
0000
0001
0000
0000
0000
1000
0000
0000
0000
0000
0000
0000
0000
1000
,
0000
0000
0000
0010
0000
0000
1000
0000
0000
0000
0000
0000
0000
0000
1000
0000
0000
0000
0100
0000
0000
0000
1000
0000
0000
0000
0002
0000
0000
0000
0000
0000
,
0000
0023
0000
0000
0000
0000
0000
0000
0000
0000
0230
0000
0000
0000
0000
2300
0000
0000
0000
0000
0000
3000
0001
0000
0000
0000
0000
0000
1000
0000
0000
0000
,
0000
0000
0000
0010
0000
0000
0000
0100
0000
0000
1000
0000
0000
0000
0000
0000
0000
0001
0000
0000
0000
0001
0000
0000
0000
0000
0000
0000
0000
1000
0000
0000
,
0000
0000
0000
1000
0000
0000
0000
0000
0000
0010
0000
0000
0000
0000
0000
0010
0000
0000
0000
0000
0000
0100
0000
0000
0000
0000
0100
0000
0000
0000
0000
0000
,
0001
0000
0000
0000
0000
0000
0001
0000
0000
0000
0000
0000
1000
0000
0000
0000
0000
0000
1000
0000
0000
0000
0000
0000
0000
0010
0000
0000
0000
0000
0010
0000
,
0000
0000
0000
0000
0000
0100
0000
0000
0000
0000
0000
0100
0000
0000
0000
0000
0001
0000
0000
0000
0000
0001
0000
0000
0000
0000
0010
0000
0000
0000
0000
0000
,
0010
0000
0000
0000
0100
0000
0000
0000
0000
0100
0000
0000
0000
0000
0000
1000
0000
0000
0000
1000
0000
0000
0000
0000
0000
0001
0000
0000
1000
0000
0000
0000
,
0010
0000
0000
1000
0000
0000
0100
0000
0000
0000
1000
0000
0000
0001
0000
0000
0000
0010
0000
0000
0100
0000
0000
1000
0000
0000
0000
0001
0000
0000
0010
0000
,
0000
0000
0100
0000
0000
1000
0000
0000
0000
0000
0000
0000
0000
0000
0001
0000
0000
0000
2000
0000
0000
3000
0010
0000
0000
0000
0100
0000
0000
0001
0000
0000
,
0010
0000
0000
0100
0000
0000
0000
1000
0000
0000
0100
0000
0000
0000
0000
0000
0000
0000
0000
0000
0000
0000
0000
0000
0000
0000
0000
0000
0000
0001
0000
0000
,
0010
0000
0000
0100
0000
0000
0000
0001
0000
0000
0010
0000
0000
0100
0000
0000
0000
0000
0000
0010
0000
0000
0000
0100
0000
0000
1000
0000
0000
0000
0000
0000
,
0000
1000
0000
0000
0000
0000
1000
0000
0000
1000
0000
0000
1000
0000
0000
0000
1000
0000
0000
0000
0000
0000
0001
0000
0000
0000
0000
0000
0000
0001
0000
0000
,
0000
0000
0000
0001
0000
0000
0000
0000
0000
0000
0001
0000
0000
0000
0000
0000
0001
0000
0000
0000
0000
0000
0000
0001
0000
0000
0000
0000
0000
0000
0000
0010
,
0000
0000
0000
0001
0000
0000
1000
0000
0000
0000
0000
0010
0000
1000
0000
0000
,
0001
0000
0000
0000
0000
1000
0000
0000
0010
0000
0000
0000
0000
0000
1000
0000
0000
0000
0001
0000
0000
1000
0000
0000
0000
0010
0000
0000
0100
0000
0000
0000
,
1000
0000
0000
0001
0000
0000
0000
0000
0000
1000
0000
0000
0000
0000
0000
0000
0010
0000
0000
0000
1000
0000
0000
0000
0010
0000
0000
0000
0000
0000
1000
0000
,
0000
0000
0100
0000
0000
0011
0000
0000
0000
0000
0000
0110
0000
0000
0000
0000
0000
0000
1100
0000
0000
0000
0010
0000
0000
1000
0000
0000
0000
0001
0000
0000
,
1000
0000
0000
0000
0000
0000
0000
0010
0000
0000
1000
0000
0000
0000
0001
0000
0000
0000
0000
0000
0000
1000
0000
0000
0100
0000
0000
0000
0001
0000
0000
0000
,
0000
0000
0010
0000
0000
0000
0000
0000
0000
1001
0000
0000
0000
1000
0000
0000
0000
0000
0000
0010
0000
0000
0000
1000
0000
0000
0000
0000
0000
0000
0001
0000
,
0000
0000
0000
0000
1000
0000
0000
0000
0000
0000
0000
0010
0000
0000
0000
0000
0000
0000
0011
0000
0000
0000
0000
0000
0000
0110
0000
0000
0000
0000
0000
0000
,
1001
0000
0000
0000
0000
0000
0000
0000
1000
0000
0000
0000
0000
0000
0010
0000
0000
0000
0000
0000
0000
1000
0000
0000
0000
0000
0000
0001
0000
0000
0000
0000
,
0000
0000
1000
0000
0000
0000
0000
0000
0000
0010
0000
0000
0000
0000
0000
0100
0000
0000
0000
0000
0000
0000
1000
0000
0000
0000
0000
0000
0000
0100
0000
0000
,
0000
0000
0000
0000
1000
0000
0000
0000
0000
0000
0010
0000
0000
0000
0000
0000
0000
1000
0000
0000
0000
0000
0000
0000
0100
0000
0000
0000
0000
0000
0000
0011
,
0000
0000
0000
0000
0000
0000
0000
0010
0100
0000
0000
0000
0000
1001
0000
0000
0000
0000
0000
0000
0000
0000
0000
0000
0000
0000
0000
0000
0000
0000
0000
0000
;

//---------------dance-single - ----------------
#NOTES:
     dance-single:
     :
     Easy:
     1:
     0.256,0.258,0.136,0.131,0.588,325.000,29.000,28.000,0.000,2.000:
2200
0000
0000
0000
0000
0000
0000
0000
0000
0000
0000
0000
0000
0000
0000
3302
0000
0000
0000
0000
0000
0000
0023
0000
0000
0000
0000
0000
0231
0000
0000
0000
,
0000
0000
0010
2300
0000
0000
0000
0000
3000
0100
0001
0000
0001
0000
0000
0000
0000
0000
0011
0000
0000
0000
0000
0000
0010
0000
0000
0000
0000
0000
0100
0000
,
0000
0000
0000
0100
0000
0000
0000
0000
0100
1000
0000
0000
0000
0000
1000
0000
0000
0000
0010
0100
0000
0000
0000
0000
0100
0000
0000
0000
0000
0000
0000
0010
,
0001
0000
0000
0000
0000
0000
0000
0100
0000
0000
0000
0000
0000
0000
0010
0100
0000
0000
0000
0000
0000
1010
0000
0000
0000
0000
0000
0001
0000
0000
0010
0000
,
0000
0001
0000
0000
0000
0010
0000
0001
0000
0000
0000
0010
0000
0001
0000
0000
0000
0000
0000
0001
0000
0000
0000
0000
0000
0001
0000
0000
0010
0000
0000
0000
,
0010
0100
0000
0000
0100
0010
0000
1000
0000
0001
0000
0001
0000
0000
0000
0001
0000
0001
0000
0000
0001
0000
0000
0001
0000
0000
0000
0000
0000
0000
0010
0000
,
0000
0000
0000
1001
0100
0000
0000
0000
0000
0000
1000
0000
0000
0001
0000
0000
0000
0000
0000
0000
1010
0000
0000
0000
0000
0000
0001
0000
0000
0000
0000
0000
,
0100
0000
0000
0000
0000
0010
0000
0000
1000
0000
0000
0000
0001
0000
0000
0000
0000
0000
0000
1000
0010
0000
0000
0000
0000
0000
0000
0001
0200
0300
0000
0000
,
0000
0100
0000
0000
0000
0000
0000
0010
0000
0010
0000
0000
0000
0000
1000
0000
0010
0000
0000
0000
0001
0000
0200
0300
0000
0000
0000
1000
0000
0000
0000
0000
,
0000
0000
0010
0000
0000
0000
0000
0000
0000
0000
0100
0000
0000
0000
0000
0000
0000
0000
1000
0000
0000
0000
0000
0001
0000
0000
0000
0000
0000
0000
1000
0000
,
0001
0000
0000
0100
0000
0000
0000
0000
0000
0000
0000
0000
0000
0100
0000
0000
0000
0000
0010
0000
0000
0000
0000
0000
0000
0000
0100
0000
0000
0000
0000
0001
,
0100
0000
0000
0010
0000
0000
0000
0000
0000
0000
0001
0000
0000
0000
0000
0000
0000
0100
0000
0000
0000
0000
0000
0001
0000
0000
0000
0000
0000
0000
2000
0000
,
0001
0000
0000
0000
0000
0000
0000
0000
0000
0000
0000
0000
3200
0000
0000
0000
0000
0000
0000
0300
0020
0000
0000
0000
0000
0000
0032
0000
0000
0000
0000
0000
,
2003
0000
0000
0000
0000
0000
0000
3200
0000
0000
0000
0000
0000
0320
0000
0000
0000
0000
0000
0000
0000
0032
0000
0000
0000
0000
0000
0000
0000
0000
0000
0000
,
0000
0000
0000
1003
0000
0000
1000
0000
0000
0000
1000
0000
0000
1000
0000
0000
1000
0000
0000
0000
0000
0000
0001
0000
0000
0000
0000
0000
0000
0000
1000
0000
,
0000
0000
0000
0000
0010
0000
0000
0000
0000
0000
0000
1000
0000
0000
0000
0000
0000
0000
0100
0000
0000
0000
0000
0000
0000
0011
0000
0000
0000
0000
0000
0000
,
0000
0110
0000
0000
0000
0000
0000
1100
0000
0000
0000
0000
0000
0010
0100
0000
0000
0000
0000
0000
0000
0011
0000
0000
0000
0000
0000
1000
0000
0000
0000
0000
,
0000
0000
0001
0000
0000
0000
0000
0000
1000
0000
0000
0000
0000
0000
0000
0010
0000
0000
0000
0000
0100
0000
0000
0010
0000
0000
0000
0000
0000
0001
0000
0000
,
0000
1000
0000
0000
0000
0000
0000
0000
0001
0000
0000
1000
0000
0000
0000
0010
0000
0000
0000
0000
0000
1000
0000
0000
0000
0000
0000
0100
0000
0000
0000
0000
,
0000
1000
0000
0000
0000
0000
0011
0000
0000
0000
0000
0000
0000
0110
0000
0000
0000
0000
0000
1100
0000
0000
0000
0000
0000
1000
0000
0000
0000
0000
0001
0000
,
0000
0000
0000
1000
0000
0000
0000
0000
0000
0010
0000
0000
0000
0000
1000
0000
0000
0000
0000
0000
0000
0100
0000
0000
0000
0000
0000
0000
0011
0000
0000
0000
,
0000
0000
0110
0000
0000
0000
0000
0000
0000
0000
1001
0000
0000
0010
0100
0000
0000
0000
0000
0000
1001
0000
0000
0000
0000
0000
0000
0010
0000
0000
0000
0100
,
0000
0000
0000
0000
0000
1001
0000
0000
0000
0000
0000
0000
1000
0000
0000
0001
0000
0000
0000
0110
0000
0000
0000
0000
0000
0000
1000
0000
0000
0001
0000
0000
,
0000
0110
0000
0000
0000
0000
0000
0000
1000
0000
0000
0000
0000
0000
0010
0000
0000
0000
0000
0000
0000
0100
2000
3000
0000
0000
0200
0300
1000
0010
0000
0000
,
0000
0002
0003
0010
0000
0010
0000
0200
0300
0100
2000
3000
0000
0000
0000
0000
0001
0000
0000
0000
0000
0000
0200
1300
0000
0000
0000
0000
0000
0000
0000
0000
,
0000
0000
0000
0000
1000
0000
1000
0000
0000
0000
0000
0000
0000
0000
0000
0000
0000
0000
1000
0000
0000
0002
0003
0000
0000
0000
0000
0000
0000
0001
0100
0000
,
0000
0000
0000
0000
0000
0000
0000
0000
0001
0000
0000
0000
0000
0000
0000
0000
0000
0001
0000
0000
0000
0000
0000
0000
0000
0000
0000
0001
0000
0000
0000
0000
,
0000
0010
0100
0010
,
0100
0000
0000
0000
0000
0000
0000
0010
0000
0000
0000
0000
0000
0000
1000
0000
0000
0000
0000
0001
0000
0000
0000
1000
0000
0000
0000
0000
0000
0000
0000
1000
,
0000
0000
0000
0010
0000
0000
1000
0000
0000
0000
0000
0000
0000
0000
1000
0000
0000
0000
0100
0000
0000
0000
1000
0000
0000
0000
0002
0000
0000
0000
0000
0000
,
0000
0023
0000
0000
0000
0000
0000
0000
0000
0000
0230
0000
0000
0000
0000
2300
0000
0000
0000
0000
0000
3000
0001
0000
0000
0000
0000
0000
1000
0000
0000
0000
,
0000
0000
0000
0010
0000
0000
0000
0100
0000
0000
1000
0000
0000
0000
0000
0000
0000
0001
0000
0000
0000
0001
0000
0000
0000
0000
0000
0000
0000
1000
0000
0000
,
0000
0000
0000
1000
0000
0000
0000
0000
0000
0010
0000
0000
0000
0000
0000
0010
0000
0000
0000
0000
0000
0100
0000
0000
0000
0000
0100
0000
0000
0000
0000
0000
,
0001
0000
0000
0000
0000
0000
0001
0000
0000
0000
0000
0000
1000
0000
0000
0000
0000
0000
1000
0000
0000
0000
0000
0000
0000
0010
0000
0000
0000
0000
0010
0000
,
0000
0000
0000
0000
0000
0100
0000
0000
0000
0000
0000
0100
0000
0000
0000
0000
0001
0000
0000
0000
0000
0001
0000
0000
0000
0000
0010
0000
0000
0000
0000
0000
,
0010
0000
0000
0000
0100
0000
0000
0000
0000
0100
0000
0000
0000
0000
0000
1000
0000
0000
0000
1000
0000
0000
0000
0000
0000
0001
0000
0000
1000
0000
0000
0000
,
0010
0000
0000
1000
0000
0000
0100
0000
0000
0000
1000
0000
0000
0001
0000
0000
0000
0010
0000
0000
0100
0000
0000
1000
0000
0000
0000
0001
0000
0000
0010
0000
,
0000
0000
0100
0000
0000
1000
0000
0000
0000
0000
0000
0000
0000
0000
0001
0000
0000
0000
2000
0000
0000
3000
0010
0000
0000
0000
0100
0000
0000
0001
0000
0000
,
0010
0000
0000
0100
0000
0000
0000
1000
0000
0000
0100
0000
0000
0000
0000
0000
0000
0000
0000
0000
0000
0000
0000
0000
0000
0000
0000
0000
0000
0001
0000
0000
,
0010
0000
0000
0100
0000
0000
0000
0001
0000
0000
0010
0000
0000
0100
0000
0000
0000
0000
0000
0010
0000
0000
0000
0100
0000
0000
1000
0000
0000
0000
0000
0000
,
0000
1000
0000
0000
0000
0000
1000
0000
0000
1000
0000
0000
1000
0000
0000
0000
1000
0000
0000
0000
0000
0000
0001
0000
0000
0000
0000
0000
0000
0001
0000
0000
,
0000
0000
0000
0001
0000
0000
0000
0000
0000
0000
0001
0000
0000
0000
0000
0000
0001
0000
0000
0000
0000
0000
0000
0001
0000
0000
0000
0000
0000
0000
0000
0010
,
0000
0000
0000
0001
0000
0000
1000
0000
0000
0000
0000
0010
0000
1000
0000
0000
,
0001
0000
0000
0000
0000
1000
0000
0000
0010
0000
0000
0000
0000
0000
1000
0000
0000
0000
0001
0000
0000
1000
0000
0000
0000
0010
0000
0000
0100
0000
0000
0000
,
1000
0000
0000
0001
0000
0000
0000
0000
0000
1000
0000
0000
0000
0000
0000
0000
0010
0000
0000
0000
1000
0000
0000
0000
0010
0000
0000
0000
0000
0000
1000
0000
,
0000
0000
0100
0000
0000
0011
0000
0000
0000
0000
0000
0110
0000
0000
0000
0000
0000
0000
1100
0000
0000
0000
0010
0000
0000
1000
0000
0000
0000
0001
0000
0000
,
1000
0000
0000
0000
0000
0000
0000
0010
0000
0000
1000
0000
0000
0000
0001
0000
0000
0000
0000
0000
0000
1000
0000
0000
0100
0000
0000
0000
0001
0000
0000
0000
,
0000
0000
0010
0000
0000
0000
0000
0000
0000
1001
0000
0000
0000
1000
0000
0000
0000
0000
0000
0010
0000
0000
0000
1000
0000
0000
0000
0000
0000
0000
0001
0000
,
0000
0000
0000
0000
1000
0000
0000
0000
0000
0000
0000
0010
0000
0000
0000
0000
0000
0000
0011
0000
0000
0000
0000
0000
0000
0110
0000
0000
0000
0000
0000
0000
,
1001
0000
0000
0000
0000
0000
0000
0000
1000
0000
0000
0000
0000
0000
0010
0000
0000
0000
0000
0000
0000
1000
0000
0000
0000
0000
0000
0001
0000
0000
0000
0000
,
0000
0000
1000
0000
0000
0000
0000
0000
0000
0010
0000
0000
0000
0000
0000
0100
0000
0000
0000
0000
0000
0000
1000
0000
0000
0000
0000
0000
0000
0100
0000
0000
,
0000
0000
0000
0000
1000
0000
0000
0000
0000
0000
0010
0000
0000
0000
0000
0000
0000
1000
0000
0000
0000
0000
0000
0000
0100
0000
0000
0000
0000
0000
0000
0011
,
0000
0000
0000
0000
0000
0000
0000
0010
0100
0000
0000
0000
0000
1001
0000
0000
0000
0000
0000
0000
0000
0000
0000
0000
0000
0000
0000
0000
0000
0000
0000
0000
;

//---------------dance-single - ----------------
#NOTES:
     dance-single:
     :
     Medium:
     1:
     0.382,0.442,0.183,0.070,1.000,517.000,39.000,15.000,0.000,0.000:
2002
0000
0000
0000
0000
0000
0000
0000
0000
0000
0000
0000
0000
0000
0000
0000
0000
0000
0000
3003
0000
0110
0000
0000
0000
0000
0000
0000
0000
0000
0000
0000
1100
0000
0000
0000
0000
0000
0000
0000
0000
0011
0000
0000
0000
0000
0000
0000
,
0000
0000
0000
0100
1000
0000
0000
0000
0000
0000
0000
0000
0000
0000
0000
0011
0000
0000
0000
0000
0000
0000
0000
0100
1000
0000
0000
0000
0000
0000
0000
0000
0000
0000
0011
0000
0000
0000
0000
0000
0000
0000
0000
0000
0000
1100
0000
0000
,
0000
0000
0000
0000
0000
0000
0000
0011
0000
0000
0000
0000
0000
0000
0000
0000
0000
0000
0110
0000
0000
0000
0000
0000
0000
0000
0000
1100
0000
0000
0000
0000
0000
0000
0000
0000
0011
0000
0000
0000
0000
0000
0000
0000
0000
0000
0000
0100
,
0000
0000
0000
0000
0000
0010
0000
0000
0000
0000
0000
0001
0000
0000
0000
0000
1000
0000
0000
0000
0000
0100
0000
0000
0000
0000
0010
0000
0000
0000
0000
0000
0001
0000
0000
0000
0000
0000
0000
0000
0000
0001
0000
0000
0000
0000
0001
0000
,
0000
0000
0000
0001
0000
0000
0000
0000
0001
0000
0000
0000
0000
0010
0000
0000
0000
0000
0010
0000
0000
0000
0000
0010
0000
0000
0000
0000
0000
0010
0000
0000
0000
0100
0000
0000
0000
0000
0000
0100
0000
0000
0000
0000
0001
0000
0000
0010
,
0000
0100
0000
0000
1000
0000
0000
0000
0000
0001
0000
0000
0000
0000
0000
0000
1000
0000
0000
0000
0000
0010
0000
0000
0000
0000
0000
0100
0000
0000
0000
0000
1000
0000
0000
0000
0000
0001
0000
0000
0000
0000
1000
0000
0000
0000
0000
0000
,
0000
0000
0000
0000
0000
0010
0000
0000
0000
0000
0010
0000
0000
0000
0010
0000
0000
0000
0000
0000
0000
0000
0000
0100
0000
0000
0000
0000
0000
0100
0000
0000
0000
0000
0100
0000
0000
0000
0000
0000
0000
0000
0001
0000
0000
0000
0000
0000
,
0001
0000
0000
0000
0000
0001
0000
0000
0000
0000
0000
1000
0000
0000
0000
0000
0000
0001
0000
0000
0000
0000
0000
0000
0000
0000
1000
0000
0000
0000
0000
0010
0000
0000
0000
0000
0000
0000
0000
0000
1000
0000
0000
0000
0000
0000
0001
0000
,
0000
0000
0000
0000
0000
1000
0000
0000
0000
0000
0010
0000
0000
0000
0000
0000
1000
0000
0000
0000
0001
0000
0000
0000
0000
1000
0000
0000
0000
0000
0100
0000
0000
0000
0000
1000
0000
0000
0000
0000
0001
0000
0000
0000
0000
0000
0000
0000
,
0000
0000
0000
0010
0000
0000
0000
0000
1000
0000
0000
0000
0000
0001
0000
0000
0000
0000
0010
0000
0000
0000
0000
0100
0000
0000
0000
0000
0000
0001
0000
0000
0000
0000
0010
0000
0000
0000
0000
0001
0000
0000
0000
0000
0010
0000
0000
0000
,
0000
0001
0000
0000
0000
0000
0010
0000
0000
0000
0000
1000
0000
0000
0000
0000
0100
0000
0000
0000
0000
1000
0000
0000
0000
0000
0100
0000
0000
0000
0000
0000
0001
0000
0000
0000
0000
1000
0000
0000
0000
0000
0001
0000
0000
0000
0000
1000
,
0000
0000
0000
0000
0001
0000
0000
0000
0001
0000
0010
0000
0000
0001
0000
0000
0000
0000
0000
0010
0000
0000
0100
0000
0000
0001
0000
0000
0000
0000
0010
0000
0000
0000
0000
0100
0000
0000
0000
0000
0001
0000
0000
0000
0000
2000
0000
0000
,
0000
0000
0000
0000
0000
0000
0000
0000
0000
0000
0000
0000
0000
0000
0000
0000
3000
0010
0000
0000
0000
0000
0001
0000
0000
0000
0000
0000
0100
0000
0000
0000
0010
0000
0000
0000
0000
0001
0000
0000
0000
0000
0100
0000
0000
0000
0000
0000
,
1000
0000
0000
0000
0000
0100
0000
0000
0000
0000
0000
0000
0001
0000
0000
0000
1000
0000
0000
0000
0020
0000
0000
0000
0000
0000
0000
0000
0000
0000
0000
0002
0030
0000
0000
0000
0000
0000
0000
0000
0000
0000
0000
0000
0000
0000
0000
0000
,
0000
0000
0000
1000
0000
0000
0000
0000
1000
0000
0000
0000
0000
0000
1000
0000
0000
0000
0000
1000
0000
0000
0000
0000
1000
0000
0000
0000
0003
0001
0000
0000
0000
0000
0001
0000
0000
0010
0000
0000
0100
0000
0000
0000
0000
1000
0001
0000
,
0000
0001
0000
0000
0000
0001
0010
1000
0000
0010
0000
0000
0001
0000
0010
0000
0000
0100
0000
0000
0000
1000
0000
0000
0000
0000
0001
0000
0000
0000
0000
0010
0000
0000
0000
0000
0000
0100
0000
0000
0000
0000
1000
0000
0000
0000
0000
0100
,
0000
0000
0000
0000
0010
0000
0000
0000
0000
0000
1000
0000
0000
0000
0000
0100
0000
0000
0000
0000
1000
0000
0000
0000
0000
0100
0000
0000
0000
0000
0010
0000
0000
0000
0000
1000
0000
0000
0000
0000
0001
0000
0000
0000
0000
0010
0000
0000
,
0000
0000
0000
0100
0000
0000
0000
0000
1000
0000
0000
0000
0000
0100
0000
0000
0000
0000
0001
0000
0000
0000
0000
0010
0000
0000
0100
0000
1000
0000
0000
0100
0000
0000
0010
0000
0001
0000
0000
0010
0000
0000
0100
0000
1000
0000
0000
0000
,
0001
0000
0000
0000
0000
0010
0000
0000
0000
0000
0100
0000
0000
0000
0000
0001
0000
0000
0000
0000
0010
0000
0000
0000
0000
0001
0000
0100
0000
1000
0000
0001
0000
0000
0010
0000
0000
1000
0000
0000
0000
0001
0000
0000
0000
0010
0000
1000
,
0000
0001
0000
0000
0000
0010
0000
0000
1000
0000
0000
0000
0000
0001
0000
0000
0000
0000
0010
0000
0000
0000
0000
1000
0000
0000
0000
0000
0010
0000
0000
0000
0000
0001
0000
0000
0000
0000
0100
0000
0000
0000
0000
1000
0000
0000
0000
0000
,
0000
0001
0000
0000
0000
0000
0000
0010
0000
0000
0000
1000
0000
0000
0000
0000
0000
0010
0000
0000
0000
0000
0001
0000
0000
0000
0000
0100
0000
0000
0000
0000
1000
0000
0000
0000
0000
0100
0000
0000
0000
0010
0000
0000
0000
1000
0000
0001
,
0000
0000
0000
0010
1000
0000
0001
0000
0000
0010
0000
0000
1000
0000
0001
0000
0000
0000
0000
1001
0000
0000
0000
0000
0000
1001
0000
0000
0000
0000
0110
0000
0000
0000
0000
0110
0000
0000
0000
0000
1100
0000
0000
0000
0000
0010
0001
0000
,
0000
0000
0000
1100
0000
0000
0000
0000
0010
0000
0000
0000
0000
0100
0000
0000
0000
0000
0010
0000
0000
0000
0000
0001
0000
0000
0000
0000
1000
0000
0000
0000
0000
0001
0000
0000
0000
0000
0010
0000
0000
0000
0000
0100
0000
0000
0000
0000
,
0010
0000
0000
0000
0000
0100
0000
0000
0000
0000
1000
0000
0000
0000
0000
0000
0100
0000
0000
0000
0000
0010
0000
0000
0000
0000
0100
0000
0000
0000
0000
0010
0000
0000
0000
0000
0001
0000
0000
0000
0000
0010
0000
0000
0000
0000
0100
0000
,
0000
0000
0000
0010
0000
0000
0000
0000
0100
0000
0000
0000
0000
0002
2000
0000
0000
0000
0000
0000
0000
0000
0000
3003
0220
0000
0000
0000
0000
0000
0000
0000
0330
0000
1100
0000
0000
0000
0000
0000
1100
0000
0000
0000
0000
0011
0000
0000
,
0000
0011
0000
0000
0000
0000
0100
2000
0000
0000
0000
0000
3000
0000
0000
0000
0200
0000
0000
0000
1000
0000
0301
0000
0000
0000
0000
0001
0000
0000
0000
0000
0000
0001
0000
0000
0000
0001
0000
0000
0000
0000
1000
0001
0000
0000
0000
0000
,
1001
0000
0000
0000
0000
0001
1000
0000
0000
0000
0100
0010
0000
0000
0000
0110
0000
0000
0000
0000
1100
0000
0000
0000
0000
1100
0000
0000
0000
0000
0011
0000
0000
0000
0000
0010
0001
0000
0000
0000
0000
0001
0000
0000
0000
0000
0010
0000
,
0000
0000
0000
0001
0000
0000
0000
0000
0010
0000
0000
0000
0000
1000
0000
0000
0000
0000
0100
0000
0000
0000
0000
1000
0000
0000
0000
0000
0100
0000
0000
0000
0000
0000
0000
0001
0000
0000
0000
1000
0000
0000
0000
0001
0000
0000
0000
0000
,
1000
0000
0000
0000
0000
0000
0110
0000
0000
0000
0000
0110
0000
0000
0000
0000
0110
0000
0000
0000
0000
0000
0110
0000
0000
0000
0000
1001
0000
0000
0000
0000
1001
0000
0000
0000
0000
1001
0000
0000
0000
0000
1001
0000
0000
0000
0000
0001
,
0000
0000
1000
0000
0001
0000
0000
0000
0000
0010
0000
0000
0000
0000
0000
0010
0000
0000
0000
0100
0000
0000
0000
0000
0000
0100
0000
0000
0000
0000
0001
0000
0000
0000
0000
0001
0000
0000
0000
1000
0000
0000
0000
0000
0000
1000
0000
0000
,
0000
0000
0010
0000
0000
0000
0000
0100
0000
0000
0000
0000
0001
0000
0000
0000
0000
1000
0000
0000
0000
0000
0010
0000
0000
0000
0000
0100
0000
0000
0000
0000
0000
0001
0000
0000
0000
1000
0000
0000
0000
0000
0000
0010
0000
0000
0000
0000
,
0100
0000
0000
0000
0000
1000
0000
0000
0000
0000
0001
0000
0000
0000
0000
0010
0000
0000
0000
0000
0100
0000
0000
0000
0000
0001
0000
0000
0000
0000
1000
0000
0000
0000
0000
0010
0000
0100
0000
0000
0001
0000
0000
0010
0000
0000
0000
0000
,
0100
0000
0000
0000
0000
0000
0000
0000
0000
0000
0000
0000
0001
0000
0000
0000
0000
0000
0001
0000
0000
0000
0000
0000
0001
0000
0000
0000
0001
0000
0000
0010
0000
0000
0000
0000
0000
0100
0000
0000
1000
0000
0000
0000
0000
0000
0000
0000
,
0000
0000
0000
0000
0001
0000
0000
0000
0000
0000
1000
0000
0000
0000
0000
0000
0010
0000
1000
0000
0100
0000
0000
0001
0000
0010
0000
0000
0100
0000
0000
0000
0000
0001
0000
0000
0000
0000
0000
0000
0000
0000
0000
0000
0000
0000
0001
0000
,
0000
0000
0000
0000
0001
0000
0000
0000
0000
0001
0000
0000
0000
0000
0001
0000
0000
0000
0000
0000
0010
0000
0000
0000
0000
0010
0000
0000
0000
0000
0010
0000
0000
0000
0000
0010
0000
0000
0000
0000
0100
0000
0000
0000
0000
0100
0000
0000
,
0000
0000
1000
0000
0000
0000
0000
0001
0000
0000
0000
0000
1000
0000
0000
0000
0000
0010
0000
0000
0000
0000
1000
0000
0000
0000
0000
0100
0000
0000
0000
0000
0000
1000
0000
0000
0000
0000
0000
0000
0001
0000
0000
0000
0001
0000
0000
0000
,
0001
0000
0000
0000
0000
0010
0000
0000
0000
0000
0010
0000
0000
0000
0000
0010
0000
0000
0000
0000
0100
0000
0000
0000
0000
0100
0000
0000
0000
0000
0100
0000
0000
0000
0000
1000
0000
0000
0000
0000
0001
0000
0000
0000
0000
0000
0010
0000
,
0000
0000
0000
0100
0000
0000
0000
0000
0001
0000
0000
0000
0000
0010
0000
0000
0000
0000
0100
0000
0000
0000
0001
0000
0000
0000
0000
0000
0010
0000
0000
0000
0000
0001
0000
0000
0000
0000
0010
0000
0000
0000
0000
0000
0001
0000
0000
0000
,
0000
0001
0000
0000
0000
0000
1000
0000
0000
0000
0000
0000
1000
0000
0000
0000
0002
0000
0000
0000
0000
0000
0000
0000
0000
0000
0000
0000
0000
0000
0000
0000
0000
0000
0000
0000
0000
0000
0000
0003
0001
0000
0000
0000
0000
0000
0001
0010
,
0000
0000
0001
0000
0000
0010
0000
0000
0001
0000
0010
0000
0000
0000
0001
0000
0000
0000
0001
0000
0000
0010
0000
0000
0100
0000
0000
1000
0000
0001
0000
0000
0000
0000
0001
0000
0000
0000
0000
0001
0000
0000
0010
0000
0000
0000
0000
0100
,
1000
0000
0001
0000
0000
0000
0000
0001
0000
0000
0000
0000
0000
0000
0000
0010
0000
0000
1100
0000
0000
1100
0000
0100
1000
0000
0000
0000
1100
0000
0000
0000
0000
0001
0000
0000
0000
0000
0010
0000
0000
0000
0000
0001
0000
0000
0000
0000
,
0010
0000
0000
0000
0000
0001
0000
0000
0000
0000
0001
0000
0000
0000
0000
0002
0000
0000
0000
0000
0000
0000
0000
0000
0000
0000
0000
0000
0000
0000
0000
0000
0000
0003
0000
0000
0001
0000
0000
0000
0000
0000
0010
0000
0000
0000
0000
0001
,
0000
0000
0010
0000
0000
0000
0000
0000
0001
0000
0000
0000
0000
1000
0000
0000
0000
0000
0001
0000
0000
0010
0000
0100
0000
0000
1000
0000
0001
0000
0000
0000
0000
0000
1000
0000
0000
0000
0001
0000
0000
0010
0000
0000
0100
0000
0000
1000
,
0000
0001
0000
0000
0000
0000
1000
0000
0000
0000
0001
0000
0000
0010
0000
0000
0100
0000
1000
0000
0000
0001
0000
0000
0000
0000
1000
0000
0000
0000
0000
0010
0000
0000
0000
0000
0000
0100
0000
0000
0000
0000
1000
0000
0000
0000
0000
0001
,
0000
0000
0000
0000
1000
0000
0000
0100
0000
0000
0010
0000
0001
0000
0000
1000
0000
0000
0000
0001
0000
0000
0000
0000
1000
0000
0000
0100
0000
0000
0001
0000
0001
0000
0000
0000
1000
0000
0000
0000
0001
0000
0000
0000
1000
0000
0000
0001
,
0000
0000
0010
0000
0000
0100
0000
0000
1000
0000
0000
0000
0001
0000
0000
0000
0010
0000
0000
0000
0000
0000
0000
0100
0000
0000
0000
0000
0001
0000
0000
0000
0000
0100
0000
0000
0000
0000
0001
0000
0000
0000
0000
0010
0000
0000
0000
0000
,
0000
1000
0000
0000
0000
0001
0000
0000
0000
0000
0010
0000
0000
0100
0000
0000
1000
0000
0001
0000
0000
0010
0000
0000
0000
0000
0100
0000
0000
0000
0000
0001
0000
0000
0000
0000
0010
0000
0000
0000
0000
0001
0000
0000
0000
0000
0000
0010
,
0000
0000
0000
0100
0000
0000
1000
0000
0000
0001
0000
0010
0000
0000
0100
0000
0000
0000
0000
0001
0000
0000
0000
0000
0001
0000
0000
0000
0000
0001
0000
0000
0000
0000
1000
0000
0000
0000
0000
1000
0000
0000
0000
0000
0100
0000
0000
0000
,
0000
0000
0100
0000
0000
0000
0000
0010
0000
0000
0000
0000
0010
0000
0000
0000
0000
0001
0000
0000
0000
0000
0001
0000
0000
0000
0000
0000
0100
0000
0000
0000
0100
0000
0000
0000
0000
0010
0000
0000
0000
0000
0010
0000
0000
0000
0000
1000
,
0000
0000
0000
0000
1000
0000
0000
0000
0000
0001
0000
0000
0000
0000
0001
0000
0000
0000
0000
0000
0010
0000
0000
0000
0000
0010
0000
0000
0000
0000
0100
0000
0000
0000
0000
0100
0000
0000
0000
0000
1000
0000
0000
0000
0000
1000
0000
0000
,
0000
0000
0001
0000
0000
0000
0000
0001
0000
0000
0000
0000
0010
0000
0000
0000
0000
0010
0000
0000
0000
0000
0100
0000
0000
0000
0000
0000
0100
0000
0000
0000
0000
1000
0000
0000
0000
0000
1000
0000
0000
0000
0000
0000
0000
0000
0000
0000
,
0000
0001
0000
0000
0000
0010
0000
0000
0000
0000
0001
0000
0000
0000
0000
0001
0000
0000
0010
0000
0000
0100
0000
1000
0000
0000
0001
0000
0000
0000
0000
1000
0000
0000
0000
0001
0000
0000
0000
0010
0000
0100
0000
0000
1000
0000
0100
0000
,
0000
0000
0000
0010
0000
0000
0000
0000
0001
0000
0000
0000
0000
0010
0000
0000
0000
0000
0000
0000
0000
0000
0002
2000
0000
0000
0000
0000
0000
0000
0000
0000
0000
0000
0000
0000
0000
0000
0003
3000
0000
0000
0000
0000
0000
0000
0000
0000
,
0000
0000
0000
0000
,
0000
0000
0000
0000
,
0000
0000
0000
0000
,
0000
0000
0000
0000
,
0000
0000
0000
0000
,
0000
0000
0000
0000
,
1001
0000
0000
0000
;

//---------------dance-single - ----------------
#NOTES:
     dance-single:
     :
     Hard:
     1:
     0.537,0.584,0.291,0.127,1.000,713.000,62.000,27.000,0.000,1.000:
2002
0000
0000
0000
0000
0000
0000
0000
0000
0000
0000
0000
0000
3003
0220
0000
0000
0000
0000
0000
0000
0000
0000
0000
0000
0000
0000
0330
0000
1000
0000
0000
0000
0001
0000
0000
0000
0000
0000
0000
0000
1000
0000
0000
0000
0010
0000
0000
0100
0000
0000
0000
0000
0000
0000
1000
0000
0000
0000
0001
0000
0010
0000
0000
,
0000
0000
0000
0000
0000
0001
0000
0000
0000
0010
0000
0000
0000
0000
0000
0000
0000
0000
0000
0001
0000
0000
0000
0000
1000
0000
0000
0001
0000
0000
0000
0000
0010
0000
0000
0000
0000
0000
0000
1000
0000
0000
0000
0000
0000
0000
0000
0001
0000
0000
0000
0000
0000
0000
0010
0000
0000
0000
0000
0000
0000
0100
0000
0000
,
0000
0000
0000
0000
1000
0000
0000
0000
0000
0000
0100
0000
0000
0000
0000
0000
0010
0000
0000
0000
0000
0000
0000
0000
0001
0000
0000
0000
0000
0000
0010
0000
0000
0000
0000
0000
0001
0000
0000
0000
1000
0000
0000
0000
0000
0000
0000
0000
0001
0000
0000
0000
0010
0000
0000
1100
0000
0000
0000
0000
0000
0000
0000
0000
,
0001
0000
0000
0000
0010
0000
0000
0000
0000
0000
0000
0000
0000
0000
1001
0000
0000
0000
0000
0000
0000
0001
1000
0000
0000
0000
0000
0000
1001
0000
0000
0000
0000
0000
0000
0001
1000
0000
0000
0000
0000
0000
0001
0000
0000
0000
0000
0000
0001
0000
0000
0000
0000
0000
0000
0001
0000
0000
0000
0000
0000
0000
0001
0000
,
0000
0000
0000
0000
0001
0000
0000
0000
0000
0000
0000
1000
0000
0000
0000
0000
0000
0000
1000
0000
0000
0000
0000
0000
0000
1000
0000
0000
0000
0000
0000
0001
0000
0000
0000
0000
0000
0000
1000
0000
0000
0000
0000
0000
0000
0010
0000
0000
0000
0000
0000
0000
0000
0100
0000
0000
0000
0000
0000
0001
0000
0000
1000
0000
,
0000
0001
0000
0000
0000
0000
0000
0000
0000
0010
0000
1000
0000
0000
0000
0010
0000
0000
0000
0000
0000
0000
0100
0000
0000
1000
0000
0000
0100
0000
0000
0000
0000
0000
0000
0001
0000
0000
0000
0000
0000
0000
0010
0000
0000
0000
0000
0000
0000
0100
0000
0000
0000
0000
0000
0000
1000
0000
0000
0000
0000
0000
0000
0001
,
0000
0000
0000
0000
0000
1000
0000
0000
0000
0000
0000
0000
0010
0000
0000
0000
0000
0000
0000
0100
0000
0000
0000
0000
0000
0000
0100
0000
0000
0000
0000
0000
0000
0100
0000
0000
0000
0000
0000
0010
0000
0000
0000
0000
0000
0000
0010
0000
0000
0000
0000
0000
0000
0010
0000
0000
0000
0000
0000
0000
0010
0000
0000
0000
,
0000
0000
0010
0000
0000
0000
0010
0000
0000
0010
0000
0000
0000
0010
0000
0000
0010
0000
0000
0000
0000
0000
0000
0010
0000
0000
0000
0000
0000
0000
0010
0000
0000
0000
0000
0001
0000
0000
0010
0000
0000
0100
0000
0000
0000
0000
0000
0001
0000
0000
0010
0000
0000
0100
0000
0000
1000
0000
0000
0100
0000
0000
0000
0010
,
0000
0000
0001
0000
0000
0000
1000
0000
0000
0000
0000
0000
0000
0001
0000
0000
0000
0000
0000
0000
0010
0000
0000
0000
0000
0000
0000
0100
0000
0000
0000
0000
0000
0001
0000
0000
0000
0000
0000
0000
0010
0000
0000
0000
0000
0000
0000
1000
0000
0000
0000
0000
0000
0100
0000
0000
0000
0000
0000
0000
0001
0000
0000
0000
,
0000
0000
0000
1000
0000
0000
0000
0000
0000
0000
0000
0001
0000
0010
0000
0000
0000
0100
0000
0000
0000
0000
0000
0000
0001
0000
0000
0000
0000
0000
0000
1000
0000
0000
0000
0000
0000
0100
0000
0000
0010
0000
0000
0000
0001
0000
0000
0000
0000
0000
1000
0000
0000
0000
0000
0000
0000
0100
0000
0000
0000
0000
0000
0000
,
0001
0000
0000
0000
0000
0000
0000
0000
1000
0000
0000
0000
0000
0000
0000
0001
0000
0000
0010
0000
0000
0000
0100
0000
0000
0001
0000
0000
1000
0000
0000
0000
0001
0000
0000
1000
0000
0000
0000
0001
0000
0000
0000
0000
0001
0000
0000
0000
0000
0000
0001
0000
0000
0000
0000
0001
0010
0000
1000
0000
0000
0000
0001
0000
,
0000
0000
0010
0000
0000
0000
1000
0000
0000
0000
0000
0000
0000
0001
0000
0000
0010
0000
0000
0000
1000
0000
0000
0000
0100
0000
0000
0100
0000
0000
0001
0000
0000
0010
0000
0000
0000
0000
0000
0000
0100
0000
0000
0000
0000
0000
1000
0000
0000
0000
0100
0000
0000
0010
0000
0000
0000
0001
0000
0000
0002
2000
0000
0000
,
0000
0000
0000
0000
0000
0000
0000
0000
0000
0000
0000
0000
0000
0000
0000
0000
0000
0000
0000
0000
0000
0000
3000
0003
1000
0000
0000
0000
0000
0000
1000
0000
0000
0000
0000
0000
0000
1000
0000
0000
0100
0000
0000
0010
0000
0000
0001
0000
0000
0000
0000
1000
0000
0000
0000
0000
0000
1000
0000
0000
0000
0000
0000
0000
,
0001
0000
0000
0010
0000
0000
0000
0100
0000
0000
1000
0000
0000
0000
1000
0000
0000
0000
0000
0000
0000
1000
0000
0000
0000
0000
0000
0200
0000
0000
0000
0000
0000
0000
0000
0000
0000
0000
0000
0000
0300
0002
0020
0000
0000
0000
0000
0000
0000
0000
0000
0000
0000
0000
0000
0000
0000
0000
0000
0000
0000
0000
0000
0000
,
0000
0033
0000
0000
0011
0000
0000
0000
0000
0000
0000
0011
0000
0000
0000
0000
0000
0000
0011
0000
0000
0000
0000
0000
0000
0011
0000
0000
0000
0000
0000
0000
0011
0000
0000
0000
0000
0000
0001
1000
0000
0000
0000
0000
0000
0001
0000
0000
0010
0000
0000
1000
0000
0000
0000
0001
0000
0000
0000
0001
0000
0000
0000
0000
,
0000
0000
0001
0000
0000
0000
0000
0001
0000
1000
0000
0000
0001
0000
0000
0010
0000
0000
0000
1000
0000
0000
0001
0000
0000
0000
0000
0000
0100
0000
0000
0000
0000
0000
0001
0000
0010
0000
0000
0000
0100
0000
0000
1000
0000
0000
0100
0000
0000
0000
0001
0000
0000
0000
0000
0000
0010
0000
0000
0000
0000
0001
0010
0000
,
1000
0000
0000
0100
0000
0000
0001
0000
0000
0000
0010
0000
0000
0100
0000
0000
0000
0000
0000
1000
0000
0000
0000
0000
0000
0100
0000
0000
0000
0010
0000
0000
0000
0001
0000
0000
0010
0000
0000
0000
1000
0000
0000
0000
0000
0000
0001
0000
0000
0000
0000
0000
0000
1000
0000
0010
0000
0000
0010
0000
0000
0001
0000
0000
,
0010
0000
0000
0000
1000
0000
0000
0000
0000
0001
0000
0000
0000
0000
0000
0000
0010
0000
0000
0000
0010
0000
0000
0000
0100
0000
0000
0100
0000
0000
0000
1000
0000
0000
0000
1000
0000
0000
0100
0000
0000
0000
0010
0000
0000
0000
0001
0000
0000
0010
0000
0000
0000
0100
0000
0000
1000
0000
0000
0001
0000
0000
0000
0000
,
0000
0001
0000
0000
0000
0000
0000
0001
0000
0000
0010
0000
0000
0000
0100
0000
0000
1000
0000
0000
0000
0001
0000
0000
0000
0000
0000
0001
0000
0000
0000
0000
0000
0000
0001
0000
0000
0010
0000
0000
0000
0100
0000
0000
1000
0000
0000
0000
0100
0000
0000
0000
0000
0001
0000
0000
0000
0000
0000
0000
0000
0001
0000
0000
,
0000
0001
0000
0000
0000
0001
0000
0000
0001
1000
0000
0001
1000
0000
0000
0000
0000
0000
1001
0000
0000
0000
0000
0000
0000
0110
0000
0000
0000
0000
0000
0000
0110
0000
0000
0000
0000
0000
0000
1100
0000
0000
0000
0000
0000
0000
1100
0000
0000
0000
0000
0000
0010
0000
0000
0000
0001
0010
0000
0000
0011
0000
0000
0000
,
0100
0000
1000
0000
0000
0000
0000
0000
0000
0001
0000
0000
0000
0000
0001
0000
0000
0000
0010
0000
0000
0000
0100
0000
0000
0000
1000
0000
0000
0100
0000
0000
0000
0000
0000
0001
0000
0000
0000
0000
0000
0000
0001
0010
0000
0000
0000
1000
0000
0000
0000
0100
0000
0000
0001
0000
0000
0001
0000
0000
0000
0000
0000
0000
,
0001
0000
0000
0000
0001
0000
0010
1000
0000
0000
0000
0000
0000
0001
0000
0000
0000
0001
0000
0000
0000
1001
0000
0000
0000
0000
0000
1001
0000
0000
0000
0000
0000
1001
0000
0000
0000
0000
0000
0000
0010
0000
0000
0000
0000
0000
0000
0000
0100
0000
0000
0000
0000
0000
0000
0010
0000
0000
0000
0000
0000
0001
0000
0000
,
0000
0000
0000
0000
1000
0000
0000
0000
0000
0000
0010
0000
0000
0000
0000
0000
0000
0100
0000
0000
0000
0000
0000
0000
0001
0000
0000
0000
0000
0000
0000
1000
0000
0000
0000
0000
0000
0022
0000
0000
0000
0000
0000
0000
0000
0000
0000
0000
0000
0033
0000
0220
0000
0000
0000
0000
0000
0000
0330
0000
0000
0000
0000
0001
,
0010
1000
0001
0000
0000
0000
0000
0001
0000
0000
0000
0000
0001
0010
1000
0000
0011
0000
1000
0000
0001
0000
0000
0010
0000
0000
0000
1000
0000
0000
0000
0000
0000
0001
0000
0000
0000
0000
0000
0001
0010
0000
1000
0000
0011
1000
0000
0000
0001
0000
0000
0000
0010
0000
0000
1000
0000
0000
0000
0000
0000
0000
0100
0000
,
0000
0000
0000
0001
0000
0000
0010
0000
0000
0000
1000
0000
0000
0001
0000
0000
0010
0000
0000
1000
0000
0000
0000
0001
0010
1000
0001
0010
0000
0000
0100
0000
1000
0000
0000
0000
0100
0000
0000
0001
0000
0000
0010
0000
0000
0000
2002
0000
0000
0000
0000
0000
0000
0000
0000
0000
0000
3003
0000
0210
0000
0000
0000
0000
,
0010
0000
0000
0300
0000
0000
0000
0000
0000
1000
0000
0000
0000
0000
0000
0000
0100
0000
0000
0000
0000
0000
0000
1000
0000
0000
0000
0000
0000
0001
0000
0000
0000
0000
0000
0000
0010
0000
0000
0000
0000
0000
0001
0000
0000
0000
0000
0000
0000
0000
0010
0000
0000
0000
0000
0000
0000
0100
0000
0000
0000
0000
0000
0000
,
0010
0000
0000
0000
0000
0000
0000
0010
0000
0000
0000
0000
0000
0000
0010
0000
0000
0000
0000
0000
0001
0000
0000
0000
0000
0000
0000
0001
0000
0000
0000
0000
0000
0010
0000
0000
0000
0000
0000
0000
0010
0000
0000
0000
0000
0000
0000
0100
0000
0000
0000
0000
0000
0000
0100
0000
0000
0000
0000
0000
0000
1000
0000
0000
,
0000
0000
0000
0000
0001
0000
0000
0000
0000
0000
0000
1000
0000
0000
0000
0000
0000
0001
0000
0000
0000
0000
0000
0000
1000
0000
0000
0000
0000
0000
0000
0010
0000
0000
0000
0000
0000
0000
1000
0000
0000
0000
0000
0000
0100
0000
0000
0000
0000
0000
0000
1000
0000
0000
0000
0000
0000
0000
0001
0000
0000
0000
0000
0000
,
0000
0010
0000
0000
0000
0000
0000
0000
0100
0000
0000
0000
0000
0000
1000
0000
0000
0000
0000
0000
0000
0100
0000
0000
0000
0000
0000
0000
0000
0000
0000
0000
0000
0000
0001
0000
0000
0000
0010
1000
0000
0001
0000
0000
0000
0000
0000
0000
0010
0000
0000
0100
0000
1000
0000
0100
0000
0000
0000
0000
0000
0000
0000
0001
,
0000
0000
0010
0000
0000
0000
0100
0000
0000
0000
0000
1000
0000
0000
0000
0000
0001
1000
0000
0000
1001
0000
0000
0000
0000
0000
0100
0000
0000
0000
0000
0000
0000
0110
0000
0000
0000
0000
0000
0000
0001
0000
0000
0000
0000
0000
0000
0000
0000
0000
0000
0000
0000
0001
0000
0000
0000
0000
0000
0000
0001
0000
0000
0000
,
0000
0000
0000
0100
0000
0000
0000
0000
0000
0010
0000
0000
0000
0000
0000
0000
1000
0000
0000
0000
0000
0000
0000
0001
0000
0000
0000
0000
0000
0000
0001
0000
0000
0000
0000
0000
0000
0010
0000
0000
0000
0000
0000
0000
0010
0000
0000
0000
0000
0000
0000
0011
0000
0000
0000
0000
0000
0000
0100
1000
0000
0000
0000
0000
,
0000
0010
0100
0000
0000
0000
0000
0000
0110
0000
0000
0000
0000
0000
0100
0010
0000
0000
0000
0000
0000
0100
0010
0000
0000
0000
0000
0000
0010
0100
0000
0000
0000
0000
0002
0000
0000
0000
0000
0000
0013
0000
0000
0000
0001
0000
0000
0010
0000
0000
0000
0001
0000
0000
0100
0000
0000
0000
1000
0000
0000
0000
0000
0000
,
0100
0000
0000
0000
0000
0000
0000
0000
0000
0000
0000
0000
0000
0000
0001
0000
0000
0010
0000
0000
0000
0001
0000
0000
0000
1000
0000
0000
0000
0001
0000
0000
0010
0000
0000
0001
0000
0000
1000
0000
0000
0000
0001
0000
0000
0010
0000
0000
0000
0001
0000
0000
1000
0000
0000
0001
0000
0000
0000
0010
0000
0000
0000
0001
,
0000
0000
1000
0000
0000
0001
0000
0000
0000
0010
0000
0000
0001
0000
0000
1000
0000
0000
0000
0000
0000
0000
0001
0000
0000
0000
0000
0000
0010
0000
0000
0000
0000
0000
0000
0001
0000
0000
0000
0000
0000
0000
1000
0000
0000
0000
0000
0000
0001
0000
0000
0000
0000
0000
0000
0000
0010
0000
0000
0000
0000
0000
0001
0000
,
0000
0000
0000
0000
0000
0100
0000
0000
0000
0000
0000
0000
0001
0000
0000
0000
0000
0000
0000
0000
1000
0000
0000
0000
0000
0000
0000
0010
0000
0000
0000
0000
0000
0000
0100
0000
0000
0000
0000
0001
0000
0000
0000
0000
0000
0000
0010
0000
0000
0000
0000
0000
0000
1000
0000
0000
0000
0000
0000
0000
1001
0000
0000
0000
,
0000
0000
0000
1001
0000
0000
0000
0000
0000
0000
1001
0000
0000
0000
0000
0000
0000
0100
0000
0000
0000
0000
0000
0000
0010
0100
0000
0000
0000
0000
0000
0100
0000
0000
0000
0000
0000
0000
0010
0000
0000
0000
0000
0000
0100
0000
0000
0000
0000
0000
0110
0000
0000
0000
0000
0000
0000
0100
0000
0000
0000
0000
0000
0000
,
0110
0000
0000
0000
0000
0000
0000
0001
0000
0000
0000
0000
0000
0000
1001
0000
0000
0000
0000
0000
0000
0001
0000
0000
0000
0000
0000
0000
1001
0000
0000
0000
0000
0000
0000
1000
0000
0000
0000
0000
0000
0000
1001
0000
0000
0000
0000
0000
0001
0000
0000
0000
0000
0000
0000
1001
0000
0000
0000
0000
0000
1000
0000
0000
,
0000
0000
0000
0000
1001
0000
0000
0000
0000
0000
0000
0001
0000
0000
0000
0000
0000
0000
0010
0000
0000
0000
0000
0000
0000
0001
0000
0000
0000
0000
0000
0000
1000
0000
0000
0000
0000
0000
0000
0010
0000
0000
0000
0000
0000
0000
0100
0000
0000
0000
0000
0000
0001
0000
0000
0000
0000
0000
1000
0000
0000
0000
0000
0000
,
0000
0001
0000
0000
0000
0000
0000
0000
0000
1000
0000
0000
0001
0000
0000
1000
0000
0000
0001
0000
0000
0000
0000
0110
0000
0000
0000
0000
0000
0000
0000
0000
0000
0000
0000
0000
0000
2002
0000
0000
0000
0000
0000
0000
0000
0000
0000
0000
0000
0000
0000
0003
3001
0000
0000
0000
0000
0001
0000
0000
0000
0001
0100
0000
,
1000
0000
0001
0000
0000
1000
0000
0000
0000
0001
0000
0000
0000
0001
0000
0000
0000
0000
1000
0000
0000
0000
0000
0000
0001
0000
1000
0000
0000
0001
0000
0000
0010
0000
0000
0000
1000
0000
0000
0000
0001
0000
0000
0000
0000
0000
1000
0000
0000
0000
0000
0001
0000
0010
1100
0000
0000
0001
0000
0000
0010
0000
0000
0000
,
1000
0000
0000
0001
0000
0000
0000
0000
0010
0000
0000
1000
0000
0000
0000
0001
0000
0000
0010
0000
0000
0000
1000
0000
0000
0001
0000
0000
0010
0000
0000
0100
0000
0000
0000
0000
0000
1000
0000
0100
0000
0000
0000
0010
0000
0000
0001
0000
0000
0000
0010
0000
0000
0000
0100
0000
0000
1000
0000
0000
0100
0000
0000
0010
,
0000
0001
0010
0000
1000
0000
0001
0010
1100
0000
0011
0000
1000
0000
0001
0000
0010
1000
0000
0010
0000
1000
0000
0000
0000
0000
0000
0010
0000
0000
0010
0000
0000
0010
0000
0000
0010
0000
0000
0010
0000
0000
0010
0000
0010
0000
0000
1001
0000
0000
0000
0000
0000
0001
1000
0000
0000
0000
0000
0000
0000
1001
0000
0000
,
0000
0000
0000
1001
0000
0000
0000
0000
0000
0000
0000
0010
0000
0000
0000
1000
0000
0000
0001
0000
0000
0000
0010
0000
1000
0000
0000
0001
0000
0000
0000
0010
0000
0000
0100
0000
0000
1000
0000
0000
0000
0000
0000
0001
0000
0000
0000
0000
0000
0010
0000
1000
0000
0000
0000
0100
0000
0000
0000
0010
0000
0000
0001
0000
,
0000
1000
0000
0000
0000
0000
0000
0000
0001
0000
0000
0000
0000
0000
0010
0000
1000
0000
0000
0001
0000
0000
0010
0000
0000
0000
0100
0000
0000
1000
0100
0000
0000
0000
0000
0000
1100
0000
0000
0000
0000
0000
0011
0000
0000
0000
0000
0000
0000
0011
0000
0000
0000
0000
0000
0000
1100
0000
0000
0000
0000
0000
0000
1100
,
0000
0000
0000
0000
0000
0001
0000
0000
0000
0010
0000
0000
0100
0000
0000
0000
1000
0000
0000
0000
0001
0010
0000
0000
0000
0000
0000
1100
0000
0000
0000
0000
0000
1001
0000
0000
0000
0010
0000
0000
0000
1000
0000
0000
0001
0000
0000
0000
0001
1000
0000
0000
0000
0000
0001
1000
0000
0000
0000
0001
0000
0010
1000
0000
,
0000
0001
0000
0000
0010
0000
0000
1000
0000
0000
0001
0000
0000
0000
0000
0010
0000
1000
0000
0000
0000
0000
0001
0000
0000
0010
0000
0100
0000
0000
1000
0000
0000
0100
0000
0000
0000
0010
0000
0000
0001
0000
0000
0010
0000
0000
0000
0100
0000
0000
0001
0000
0000
0000
1000
0000
0000
0010
0000
0000
0000
0001
0000
0000
,
0001
0000
0000
0000
0000
0000
0000
1000
0000
0000
0000
0000
0000
0001
0010
0000
0000
0000
1000
0000
0000
0100
0000
0000
0000
0001
0000
0000
0010
0000
0000
0000
0000
0000
0001
0000
0000
0000
0000
0010
0000
1000
0000
0000
0000
0001
0000
0000
0000
0010
0000
0000
0100
0000
0000
1100
0000
0000
0000
0000
0000
0000
0100
1000
,
0000
0000
0000
0000
0001
0010
0000
0000
0000
0000
0000
0000
0011
0000
0000
0000
0000
0000
0000
1001
0000
0000
0000
0000
0000
0000
1001
0000
0000
0000
0000
0001
0000
0000
0000
0000
0100
0000
0000
1000
0000
0000
0001
0000
0000
0000
0010
0000
0000
0000
0000
0000
0010
0100
0000
0000
0000
0000
0100
0000
1000
0000
0000
0001
,
0000
0000
0010
0000
0000
0000
0100
0000
0000
0001
0000
0000
0000
0000
0000
0000
0001
0000
0000
0000
0000
0000
0001
0000
0000
0010
0000
0000
0000
0100
0000
0000
1000
0000
0000
0000
0001
0000
0000
0000
0000
0000
0010
0000
0000
0000
0000
0000
0100
0000
1000
0000
0000
0001
0000
0000
0010
0000
0000
0000
0100
0000
0000
0000
,
0000
0000
0000
0000
0001
0000
0000
0000
0000
0000
0001
0000
0000
0001
0000
0000
0010
0000
0000
0000
0100
0000
0000
1000
0000
0000
0000
0001
0000
0000
0000
0000
0000
0001
0000
0000
0000
0000
0000
0001
0000
0010
0000
0000
0100
0000
0000
0000
1000
0000
0000
0001
0000
0000
0000
0010
0000
0000
0000
0000
1000
0000
0000
0000
,
0000
0000
1000
0000
0000
0100
0000
0000
0010
0000
0000
0001
0000
0000
0000
1000
0000
0000
1000
0000
0000
0000
0000
0000
1000
0000
0000
0000
0000
0001
0010
0000
1100
0000
0000
0001
0000
0000
0010
0000
0000
0000
2002
0000
0000
0000
0000
0000
0000
0000
0000
0000
0000
0000
0000
0000
3003
0010
0000
0000
0000
0100
0000
0000
,
1000
0000
0000
0000
0001
0000
0000
0010
0000
0000
0000
0000
0000
0000
0001
0000
0000
0000
0000
0001
0010
0000
0000
0000
1000
0000
0000
0000
0001
0000
0000
0000
0010
0000
0000
0100
0000
0000
0000
0000
0000
1000
0000
0000
0000
0000
0000
1000
0100
0000
0000
0000
0010
0000
0000
0001
0000
0000
0010
0000
0000
0000
0100
0000
,
0000
0000
0000
0000
1000
0000
0000
0000
0000
0100
0001
0000
0000
0010
0000
0010
0000
0000
0100
0000
0000
0000
1000
0000
0000
0002
2000
0000
0000
0000
0000
0000
0000
0000
0000
0000
0000
0000
0000
0000
0000
0000
0000
0000
0000
0000
0003
3220
0000
0000
0000
0000
0000
0000
0000
0000
0000
0330
0000
2002
0000
0000
0000
0000
,
0000
3003
0000
0000
0000
0000
0000
0000
0000
0000
0000
0000
0000
0000
0000
0000
0000
0000
0000
0000
0000
0000
0000
0000
0000
0000
0000
0000
0000
0000
0000
0000
0000
0000
0000
0000
0000
0000
0000
0000
0000
0000
0000
0000
0000
0000
0000
0000
0000
0000
0000
0000
0000
0000
0000
0000
0000
0000
0000
0000
0000
0000
0000
0000
0000
0000
0000
0000
0000
0000
0000
0000
0000
0000
0000
0000
0000
0000
0000
0000
0000
0000
0000
0000
0000
0000
0000
0000
0000
0000
0000
0000
0000
0000
0000
0000
0000
0000
0000
0000
0000
0000
0000
0000
0000
0000
0000
0000
0000
0000
0000
0000
0000
0000
0000
0000
0000
0000
0000
0000
0000
0000
0000
0000
0000
0000
0000
0000
0000
0000
0000
0000
0000
0000
0000
0000
0000
0000
0000
0000
0000
0000
0000
0000
0000
0000
0000
0000
0000
0000
0000
0000
0000
0000
0000
0000
0000
0000
0000
0000
0000
0000
0000
0000
0000
0000
0000
0000
0000
0000
0000
0000
0000
0000
0000
0000
0000
0000
0000
0000
0000
0000
0000
0000
0000
0000
0000
0000
0000
0000
0000
0000
;

//---------------dance-single - ----------------
#NOTES:
     dance-single:
     :
     Challenge:
     1:
     0.607,0.770,0.370,0.084,1.000,810.000,79.000,18.000,0.000,1.000:
2000
0000
0000
0000
0000
0000
0002
3000
0000
0000
0010
0000
0003
0000
0100
0000
0000
2000
0000
0000
0000
0000
0000
0000
0000
0000
0000
0000
0000
0000
0000
0000
3001
0000
0000
0000
0010
0000
0000
0000
0000
0000
0001
0000
0000
0000
0011
0000
1000
0000
0000
0000
0000
0000
0000
0001
0000
0000
0000
0100
0000
1000
0100
0000
,
0000
0000
0000
0001
0000
0010
1000
0001
0000
0100
1000
0000
0000
0000
0000
0000
0000
0000
0000
0001
0000
0010
0000
0000
0000
0100
0000
1000
0000
0000
0000
0100
0000
0000
0000
0000
0000
0001
0000
0010
0000
0000
0000
0100
0000
0000
1000
0000
0100
0000
0000
0000
0001
0010
0000
0000
0000
0000
0000
1000
0000
0000
0000
0000
,
0000
0000
0000
0001
0000
0000
0000
0000
0000
0000
0010
0000
0000
0000
0000
0000
0000
0100
0000
0000
0000
0001
0000
0010
0000
0000
0000
0000
0100
1000
0000
0000
0000
0000
0000
0001
0000
0000
0010
0000
0000
0100
0000
0000
0000
0000
0000
0000
0001
0000
0000
0010
0000
0100
1000
0000
0000
0001
0000
0000
0000
0000
0000
0000
,
0100
0000
0000
1000
0000
0000
0001
0000
0000
0000
0000
0010
0000
0000
0000
0100
0000
1000
0000
0001
0000
0000
0000
0000
0000
0000
0100
0000
0000
1000
0000
0000
0001
0000
0000
0000
0000
0000
0000
0000
0000
1001
0000
0000
0000
0000
0000
0000
1001
0000
0000
0000
0000
0000
0000
0001
0000
0000
0000
0001
0000
0000
0000
0001
,
0000
0000
0001
0000
0000
0001
0000
0000
0000
0001
0000
0000
0001
0000
0000
0001
0000
0000
0010
0000
0000
0000
0000
0000
0000
0010
0000
0000
0000
0000
0000
0010
0000
0000
0000
0000
0000
0000
0010
0000
0000
0000
0000
0000
0000
0100
0000
0000
0000
0000
0000
0000
0100
0000
0000
0000
0000
0000
0000
0100
0000
0000
0000
0000
,
0000
0000
1000
0000
0000
0001
0000
0000
0010
0000
0000
0100
0000
0000
0000
1000
0000
0000
0000
0001
0000
0000
0010
0000
0000
0100
0000
0000
0000
1000
0000
0000
0001
0000
0000
0000
0001
0000
0000
0000
0000
0000
0001
0000
0000
0000
0000
0000
0000
0001
0000
0000
0000
0000
0000
0000
0001
0000
0000
0000
0000
0000
0000
0010
,
0000
0000
0000
0000
0000
0000
1001
0000
0000
0000
0000
0000
0000
1001
0000
0000
0000
0000
0000
0000
0001
0000
0000
0000
0000
0000
0000
1000
0000
0000
0000
0000
0000
0010
0000
0000
0000
0000
0000
0000
1000
0000
0000
0000
0000
0000
0000
0100
0000
0000
0000
0000
0000
0000
1000
0000
0000
0001
0000
0000
0010
0000
0000
0000
,
0100
0000
0000
1000
0000
0000
0000
0001
0000
0000
0010
0000
0000
0100
0000
0000
0000
1000
0000
0000
0000
0000
0000
1000
0000
0000
0000
0000
0000
0000
1000
0000
0000
0000
0000
0000
0000
0100
0000
0000
0000
0000
0000
0000
0100
0000
0000
0000
0000
0000
0000
0100
0000
0000
0000
0000
0000
0000
0010
0000
0000
0000
0000
0000
,
0010
0000
0001
0000
0000
0000
0000
0010
0000
0000
0000
0100
0000
0000
1000
0000
0000
0000
0100
0000
0000
0000
0001
0000
0000
0000
0000
0000
1000
0000
0000
0100
0000
0000
0001
0000
0000
1000
0000
0000
0000
0001
0000
0000
0010
0000
0000
1000
0000
0000
0000
0001
0000
0000
0000
0000
0000
0000
2002
0000
0000
0000
0000
0000
,
0000
0000
3003
0000
0000
0010
0000
0000
0000
0100
0000
0000
1000
0000
0000
0001
0000
0000
0000
0100
0000
0000
1000
0000
0000
0000
0000
0000
0001
0000
0000
0000
0000
0100
0000
0000
0000
0000
0001
0000
0000
0000
0010
0000
0000
1000
0000
0000
0000
1001
0000
0000
0000
0000
0000
0000
1001
0000
0000
0000
0000
0000
0000
0000
,
1001
0000
0000
0000
0000
0000
0000
1001
0000
0000
0000
0000
0000
0000
0001
1000
0000
0000
0000
0010
0000
0000
0100
0000
0000
0000
1000
0000
0000
0001
0010
0000
1000
0000
0000
0000
0001
0000
0000
0000
0000
0000
0000
0001
0000
0000
0000
0000
0000
0001
0000
0000
0000
0000
0001
0000
0010
1000
0000
0001
0010
0000
1000
0000
,
0000
0001
0000
0010
0000
0000
0000
0001
0000
0000
0000
0000
0001
0000
0000
0000
0000
0001
0000
0000
0010
0000
0000
1000
0000
0000
0100
0000
0000
0000
0010
0000
0000
0001
0000
0000
0000
0000
0000
0010
0000
0000
0000
0100
0000
0000
1000
0000
0000
0100
0000
0000
0010
0000
0000
0000
0000
0000
0000
2002
0000
0000
0000
0000
,
0000
0000
0000
0000
0000
0000
0000
0000
0000
0000
0000
0000
0000
0000
0000
0000
0000
0000
0000
0000
0000
0000
0000
0000
0000
0000
0000
0003
3000
0000
0000
0100
0010
0000
0000
0100
0010
0000
0110
0000
0000
0000
0110
0000
0000
0001
0000
0000
0110
0000
0000
1000
0000
0000
0000
0000
0001
0000
0100
1000
0000
0000
0001
0000
,
0000
0100
0000
0000
0000
1000
0000
0001
0000
0000
0000
0010
0000
0000
0000
1000
0000
0000
0000
1000
0000
0000
1000
0000
0000
0000
1000
0000
2000
0000
0000
0000
0000
0000
0000
0000
0000
0000
0000
0000
0000
0000
0000
3022
0000
0000
0000
0000
0000
0000
0000
0000
0000
0000
0000
0000
0000
0000
0000
0000
0000
0000
0000
0000
,
0000
0033
0000
0000
0000
1000
0000
0000
0000
0000
0000
0100
0000
0000
0000
0000
0000
0000
1000
0000
0100
0000
1000
0000
0100
0000
1000
0100
0000
1000
0100
0000
1000
0100
1000
0000
0100
1000
0000
0001
0000
0000
0000
0000
0001
0000
0010
0000
0000
0000
1000
0000
0001
0000
0000
0000
1000
0000
0000
0000
0001
0000
0000
0000
,
0000
1000
0000
0000
0000
0000
0000
0001
0010
0000
1000
0000
0000
0001
0000
0010
0000
1000
0001
0000
0010
0000
0000
0001
0010
0000
0000
0000
0000
0000
1100
0000
0000
0000
0000
0001
0010
0000
0000
0000
1000
0000
0000
0100
0000
0000
0001
0000
0000
0000
0011
0000
0000
0000
0000
0000
0000
0011
0000
0000
0000
0001
0010
1000
,
0011
0000
1000
0001
0010
0000
0000
0010
0000
0000
1000
0000
0000
0000
0100
0000
0000
0000
0000
0001
0000
0000
0000
0000
0001
0010
0000
0000
0000
1000
0000
0000
0000
0100
0000
0000
0000
0001
0000
0000
0001
0000
0000
0000
0000
0000
0000
0001
0010
0000
0000
0000
0000
0001
0000
0010
0000
0000
1000
0000
0000
0100
0000
0000
,
0000
0100
0000
0000
0001
0000
0000
0000
0000
0000
0001
0000
0000
0000
0000
0001
0000
0010
0000
0000
1000
0000
0000
0000
0010
0000
0000
0000
0001
0000
0000
0001
0000
0000
0000
0010
0000
0000
0000
0100
0000
0000
0000
0001
0000
0100
0000
1000
0000
0100
0000
0000
0000
0010
0000
0000
0001
0000
0000
0010
0000
0000
0000
0000
,
0000
0010
0000
0000
0000
0000
0000
0001
0000
0000
0010
0000
0000
0000
0010
0000
0000
0000
1000
0000
0000
0001
0000
0000
0000
0000
0000
0001
0000
0000
0000
0000
0000
0001
0000
0000
0000
0010
0000
0000
0000
0100
0000
0000
0000
1000
0000
0000
0100
0000
0000
0000
0000
0000
0000
0100
0000
0000
0000
0000
0000
0001
0000
0000
,
0000
0010
0000
0000
0100
0000
0000
0000
1000
0000
0000
0000
1000
0100
0000
0000
0000
0000
0000
1100
0000
0000
0000
0000
0000
0011
0000
0000
0000
0000
0000
0000
0011
0000
0000
0000
0000
0000
0000
0001
0000
0000
0000
0000
0000
0000
0001
0000
0000
0000
0000
0000
0001
0000
0000
0000
0010
0000
0000
0100
0000
0000
0000
1000
,
0000
0000
0000
1000
0000
0000
0000
0000
0000
0000
1000
0000
0000
0000
0000
1000
0000
0000
0000
0100
0000
0000
0000
0010
0000
0000
0001
0000
0000
0000
0000
0001
0000
0000
0000
0000
0000
0001
0000
0000
0000
0000
0000
0001
0000
0000
0000
0010
0000
0000
0100
0000
0000
0000
1000
0000
0000
0000
1000
0000
0000
0000
0000
1000
,
0000
0000
0100
0000
0000
0000
0010
0000
0000
0001
0000
0000
0000
0010
0000
0000
0100
0000
0000
0000
1000
0000
0000
0100
0000
0000
0000
0010
0000
0000
0001
0000
0000
0000
0010
0000
0000
0010
0000
0000
0000
1000
0000
0000
0001
0000
0000
0000
0001
0000
0000
0000
0000
0000
0001
0000
0000
0000
0000
0000
0001
0000
0000
0000
,
0010
0000
0000
0100
0000
0000
1000
0000
0000
0000
0001
0000
0000
0000
0000
0001
0000
1000
0000
0001
0000
0000
0000
0000
0001
0000
0000
0010
0000
0000
0000
0100
0000
0000
1000
0000
0000
0000
0001
1000
0000
0000
0000
0000
0000
1001
0000
0000
0000
0000
0000
0110
0000
0000
0000
0000
0000
0100
0010
0000
0000
0000
0000
0000
,
0000
0001
0000
0000
0000
0010
0000
0000
0100
0000
0000
1000
0000
0000
0000
0001
0000
0000
0001
0000
0000
0000
0001
0000
0000
0001
0000
0000
0000
0001
0000
1000
0000
0000
0001
0000
0000
1000
0000
0000
0000
0001
0000
0000
0010
0000
0000
0000
0100
0000
1000
0000
0000
0000
0000
0000
0001
0010
0000
0000
0000
0000
0000
1100
,
0000
0000
0000
0000
0000
0001
0000
0000
0000
0010
0000
0000
0100
0000
0000
1000
0000
0000
0000
0001
0000
0000
0000
0000
0000
0000
0001
0000
0000
0001
0000
0000
0010
0000
0000
0000
0100
0000
0000
1000
0000
0000
0000
0100
0000
0000
0010
0000
0000
0000
0001
0000
0000
1001
0000
0000
0000
0000
0000
0000
0001
0000
0000
0000
,
0000
0000
0000
0001
0000
0000
0000
0000
0000
0001
0000
0000
0000
0000
0000
0000
0001
0000
0000
0000
0000
0000
0000
0010
0000
0000
0000
0000
0000
0000
0010
0000
0000
0000
0000
0000
0000
0010
0000
0000
0000
0000
0000
0000
0100
0000
0000
0000
0000
0000
0010
0000
0000
0000
0000
0000
0000
0100
0000
0000
0000
0000
0000
0000
,
0001
0000
0000
0000
0000
0000
0000
1000
0000
0000
0000
0000
0000
0010
0000
0000
0000
0000
0000
0000
0100
0000
0000
0000
0000
0000
0000
0000
1001
0000
0000
0000
0000
0000
0010
0000
0000
0000
0000
0000
0000
0100
0000
0000
0000
0000
0000
0000
0001
0010
0000
0000
0000
0000
0000
1000
0100
0000
0000
0000
0000
0000
0011
0000
,
0000
0000
0000
0000
0100
1000
0000
0000
0000
0000
0000
0110
0000
0000
0000
0000
0000
0000
0001
0100
0000
0000
0000
0000
0000
0010
1000
0000
0000
0000
0000
0000
0101
0000
0000
0000
0000
0000
0000
1010
0000
0000
0000
0000
0000
0011
0000
0000
0000
0000
0000
0000
1100
0000
0000
0000
0000
0000
0000
0011
0000
0000
0000
0000
,
0000
0100
1000
0000
0000
0000
0000
0000
0001
0010
0000
0000
0000
0000
0000
0001
0000
0000
0000
0000
0000
0000
0010
0000
0000
0000
0000
0100
0000
1000
0000
0000
0000
0000
0000
0001
0000
0000
0000
0010
0000
1000
0000
0000
0000
0000
0000
0000
0001
0000
0000
0010
0000
0000
0100
1000
0000
0000
0000
0000
0000
0000
0000
0011
,
0000
0000
0000
0000
0000
1100
0000
0000
0000
0000
0000
0000
0001
0010
0000
0000
0000
0000
0000
1001
0000
0000
0000
0000
0000
0000
0010
0100
0000
0000
0000
0000
0000
1001
0000
0000
0000
0000
0000
0000
0001
0100
0000
0000
0000
0000
0000
1000
0010
0000
0000
0000
0000
0000
0101
0000
0000
0000
0000
0000
1010
0000
0000
0000
,
0000
0000
0000
0000
0011
0000
0000
0000
0000
0000
1100
0000
0000
0000
0000
0000
0010
0001
0000
0000
0000
0000
0000
0000
0110
0000
0000
0000
0000
0000
0000
0110
0000
0000
0000
0000
0000
0000
0110
0000
0000
0000
0000
0000
0000
0110
0000
0000
0000
0000
0000
1001
0000
0000
0000
0000
0000
0000
1001
0000
0000
0000
0000
0000
,
0001
0010
0000
0000
0000
0000
0000
0100
1000
0000
0000
0000
0000
0000
0001
0010
0000
0000
0000
0000
0000
0100
1000
0000
0000
0000
0000
0000
0001
0000
0000
0000
0000
0000
0000
0001
0000
0000
0000
0000
0000
0000
0000
0010
0000
0010
0000
0000
0000
1000
0000
0000
0001
0000
0000
0000
0010
0000
0000
0100
0000
0000
0000
0000
,
0000
1000
0000
0000
0000
0000
0000
0000
0000
0000
0000
0000
0000
0000
0000
0000
0000
0000
1000
0000
0000
0100
0000
0000
0000
1000
0000
0000
0001
0000
0000
0000
0010
0000
0000
0000
1000
0000
0000
0001
0000
0000
0010
0000
0000
0000
0100
0000
0000
1000
0000
0000
0001
0000
0000
0000
0010
0000
0000
0100
0000
0000
0000
1000
,
0000
0000
0001
0000
0000
0010
0000
0000
0000
0000
0000
0000
0000
0000
0000
1000
0000
0000
0000
0000
0000
0000
0010
0000
0000
0000
0000
0000
0000
1000
0000
0000
0000
0001
0000
0000
0010
0000
0000
0000
0000
0000
0000
0000
0000
0100
0000
0000
0000
0000
0000
0000
0000
0000
0000
0000
0000
0000
0000
0000
0000
0000
1000
0000
,
0000
0000
0000
0000
0000
0000
0001
0000
0000
0000
0000
0000
0010
0000
0000
0000
0100
0000
0000
0000
1000
0000
0000
0001
0000
0000
0010
0000
0000
0000
2002
0000
0000
0000
0000
0000
0000
0000
0000
0000
0000
0000
0000
0000
0003
3000
0000
0000
0110
0000
0000
0000
0000
0000
0110
0000
0000
0000
0000
0000
0000
0001
1000
0000
,
0000
0000
0000
0000
1001
0000
0000
0000
0000
0000
0000
1001
0000
0000
0000
0000
0000
0010
0000
0000
0000
0000
0000
0000
0100
0000
0000
0000
0000
0000
0000
1000
0000
0000
0000
0000
0000
0000
0001
0000
0000
0000
0000
0000
1000
0000
0000
0000
0000
0000
0000
0010
0000
0000
1000
0000
0000
0001
0000
0000
0000
0000
0000
0000
,
0010
0000
0000
0000
0000
0000
0000
0100
0000
0000
0000
0000
0000
0000
1000
0000
0000
0000
0000
0000
0000
0000
0000
0000
0010
0000
0000
0000
0000
0000
0100
0000
0000
0000
0000
0010
0000
0000
0000
0000
0000
0100
0000
0000
0000
0000
0000
0001
0000
0000
0000
0000
0000
0000
1000
0000
0000
0000
0000
0000
0000
0001
0000
0000
,
0000
0000
0000
0000
1000
0000
0000
0000
0000
0000
0010
0000
0000
0000
0000
0000
1000
0000
0000
0000
0000
0000
0000
0100
0000
0000
0000
0000
0000
0000
1000
0000
0000
0000
0000
0000
0000
0010
0001
0000
0000
0000
0000
0000
0000
1100
0000
0000
0000
0000
0000
0010
0001
0000
0000
0000
0000
0000
0100
1000
0000
0000
0000
0000
,
0000
0000
1001
0000
0000
0000
0000
0000
0000
0110
0000
0000
0000
0000
0000
0001
1000
0000
0000
0000
0000
0000
0011
0000
0000
0000
0000
0000
0000
0000
0000
0000
0000
0000
0000
2002
0000
0000
0000
0000
0000
0000
0000
0000
0000
3003
0000
0000
0000
0000
0000
0000
0000
0001
0000
0000
0000
0001
1000
0000
0000
0000
0001
0000
,
0000
0000
0000
0000
0000
0000
0100
0000
0000
1000
0000
0000
0000
0001
0000
0000
0000
0000
0000
1000
0000
0000
0000
0000
0001
0000
0000
0010
0000
0000
0100
0000
0000
1000
0000
0000
0000
0001
0000
0000
0010
0000
0000
0000
0000
0000
1000
0000
0000
0000
0000
0000
0001
0000
0010
0000
0000
0000
0100
0000
0000
1000
0000
0000
,
0100
0000
0000
0000
0001
0000
0000
0000
0000
0000
0010
0000
0000
0000
0000
0100
0000
0000
1000
0000
0000
0100
0000
0000
0010
0000
0000
0000
0001
0000
0000
0010
0000
0000
0000
0000
0000
0100
0010
0000
0000
1000
0000
0000
0000
0100
0000
0000
0010
0000
0000
0000
0001
0000
0000
0010
0000
0000
1000
0000
0000
0001
0000
1000
,
0000
0001
0000
1000
0001
0000
1000
0000
0001
1000
0000
0011
1100
0000
0100
0000
1000
0110
0000
1000
0001
1010
0000
0001
1000
0000
0001
1000
0000
0001
1000
0000
0001
1000
0000
0001
1000
0000
0001
1000
0001
0000
1000
0001
1000
0000
0001
1000
0001
0000
1000
0001
0000
0001
0000
1001
0000
0000
0000
0000
0000
0000
0000
0000
,
0001
0000
0000
0000
0000
0010
0000
0000
0000
0000
0000
0000
0001
0000
0000
0010
0000
0000
0000
0100
0000
0000
0000
1000
0000
0001
0000
0000
0010
0000
0000
0000
0100
0000
0000
1000
0000
0000
0000
0001
0000
0000
0000
0000
0000
0001
0000
0000
0000
0000
0000
0001
0000
0010
0000
0000
0100
0000
0000
1000
0000
0000
0001
0000
,
0000
0000
0010
0000
0000
0000
0000
0000
0001
0000
0000
0000
0000
0000
0001
0000
0000
0010
0000
0000
0000
0100
0000
1000
0000
0000
0000
0001
0000
0000
0010
0000
0000
0000
0000
0001
0000
0000
0000
0000
0000
0011
0000
1000
0000
0000
0100
0000
0000
0000
0010
0000
0000
0001
0000
0000
0000
0010
0000
0000
0000
0000
0000
0100
,
0000
0000
0000
0000
0000
1000
0100
0000
0000
0000
0001
0000
0000
0010
0000
0000
0000
0100
0000
0000
0000
1001
0000
0000
0000
0000
0000
1001
0000
0000
0000
0000
0000
0001
0000
0010
0000
0000
0110
0000
0000
1000
0000
0000
0001
1000
0000
0000
0001
0100
0000
0000
0000
0000
1010
0000
0000
0000
0000
0000
0001
0000
0000
0010
,
0000
0000
0000
0100
0000
0000
1000
0000
0000
0000
0001
0000
0000
0000
0000
0000
0000
0001
0000
0000
0000
0000
0001
0000
0010
0000
0000
0000
0100
0000
0000
1000
0000
0000
0000
0100
0000
0000
0010
0000
0000
0000
0000
0000
0001
0000
0000
0000
0000
0000
0010
0000
0000
0000
0000
0100
0000
0000
1000
0000
0000
0000
0001
0000
,
0000
0000
0001
0000
0000
0000
0000
0000
0001
0000
0000
0000
0000
0000
0001
0000
0010
0000
0000
0100
0000
0000
1000
0000
0000
0100
0000
0000
0000
0001
0000
0000
0000
0000
0000
0001
0000
0000
0000
0000
0001
0000
0010
0000
0000
0000
0100
0000
0000
1000
0000
0000
0001
0000
0000
0000
1001
0000
0000
0000
0000
0000
0001
1000
,
0000
0000
0000
0001
0010
0001
0010
0000
0000
0000
0000
0000
0011
0000
0000
0000
0000
0000
0000
0000
1100
0000
0000
0000
0000
0000
1100
0000
0000
0000
0000
0001
0000
0000
0000
0010
0000
0000
0100
0000
0000
0000
1000
0000
0000
0000
0001
0100
0000
0000
0000
0000
0000
1000
0010
0000
0000
0000
0000
0001
0000
0000
0000
0010
,
0000
0000
0100
0000
0000
0000
1000
0000
0000
0000
0011
0000
0000
0000
0000
0000
1001
0000
0000
0000
0000
0000
0001
0000
0000
0010
0000
0000
0000
0100
0000
0000
0000
1000
0000
0000
0000
0001
0000
0000
0000
0000
0000
0001
0000
0000
0000
0001
0000
0010
1000
0000
0000
0000
0001
0000
0000
0000
0010
0000
0000
0100
0000
0000
,
0000
0000
0100
0000
0000
0000
0000
0100
0000
0000
0000
0000
0001
0010
0000
0000
1000
0000
0001
0000
0000
0000
0000
0001
0000
0000
0000
0001
0000
0000
0000
0000
0000
0000
0001
0000
0000
0000
0000
0001
0010
1000
0000
0000
0000
0001
0000
0000
0001
0000
0000
0000
0000
0000
0000
0001
0000
0010
0000
0100
1000
0000
0000
0000
,
0001
0000
0000
0000
0000
1000
0000
0000
0000
0001
0000
0000
0000
0000
0000
0001
0010
0000
0000
1000
0000
0000
0000
0001
0010
0000
1000
0000
0000
0000
0001
0010
0000
0000
0100
1000
0000
0000
0000
0100
0000
0001
0000
0000
2000
0002
0000
0000
0000
0000
0000
0000
3000
0003
0010
0000
0000
0001
0000
0000
1100
0000
1000
0000
,
0000
0001
0000
0000
0000
1000
0000
0000
0001
0000
0000
0000
0000
0000
0000
0001
0000
0000
0000
0000
0001
1000
0000
0000
0000
0001
0000
0000
0000
0001
0000
0000
0001
0000
0000
0001
0000
0000
0000
0000
0000
0000
0001
0000
0000
0000
0000
0001
0010
0000
1100
0000
0000
0001
0000
0000
0000
0001
0000
0000
0000
0000
0001
0010
,
0000
0000
1000
0000
0000
0001
0000
0000
0000
0000
0001
1010
0000
0001
0010
1000
0001
0000
1000
0000
1001
0000
0000
2002
0000
0000
0000
0000
0000
0000
0000
0000
0000
0000
0000
0000
0000
0000
0000
0000
0000
0000
0000
0000
0000
0000
0000
0000
0000
0000
0000
0000
0000
0000
0000
0000
0000
0000
0000
0000
0000
0000
0000
0000
,
3003
0000
0000
0000
;
